Quick Browse
Movies
TV shows
Music
Games
Applications
Anime
Other

Latest Articles

Friends
RARBG
Torrents.me
Torrent Download
Movie4u
1337x
Torrent Downloads

LimeTorrents

Verified torrent Deadpool 2 2018 720p HDTS x264 AAC [MW]


    Seeders : 0      Leechers : 0

Hash :B395B805CD9376A764174EFE80D28F0214EAA556
Added :Last Month by MovieFreakVerified torrent uploader in Movies
Size :776.13 MB
Stream :Watch Online Full Movie @ Movie4u
Share :


Deadpool 2 2018 720p HDTS x264 AAC [MW]
Download Direct And Anonymously








Note :

Please Update (Trackers Info) Before Downloading Torrents to See Updated Seeders And Leechers for Batter Download Speed.

Trackers List

Tracker NameLast CheckStatusSeedersLeechers




Torrent File Content (1 file)


Deadpool 2 2018 720p HDTS x264 AAC [MW]
     Deadpool 2 2018 720p HDTS x264 AAC [MW].mkv -
776.13 MB



Description




[url=http://pichub.site/image/Mi6GX]
http://pichub.site/images/2018/05/17/MV5BMjI3Njg3MzAxNF5BMl5BanBnXkFtZTgwNjI2OTY0NTM._V1_QL50_SY1000_CR006741000_AL_.jpg
[/url]


General
Format : Matroska
Format version : Version 4 / Version 2
File size : 776 MiB
Duration : 1 h 49 min
Overall bit rate : 992 kb/s

Video
ID : 1
Format : AVC
Format/Info : Advanced Video Codec
Format profile : [email protected]
Format settings : CABAC / 4 Ref Frames
Format settings, CABAC : Yes
Format settings, RefFrames : 4 frames
Codec ID : V_MPEG4/ISO/AVC
Duration : 1 h 49 min
Bit rate : 900 kb/s
Width : 1 280 pixels
Height : 510 pixels
Display aspect ratio : 2.510
Frame rate mode : Constant
Frame rate : 29.970 (30000/1001) FPS
Color space : YUV
Chroma subsampling : 4:2:0
Bit depth : 8 bits
Scan type : Progressive
Bits/(Pixel*Frame) : 0.046
Stream size : 700 MiB (90%)
Writing library : x264 core 155 r2893 b00bcaf
Default : Yes
Forced : No

Audio
ID : 2
Format : AAC
Format/Info : Advanced Audio Codec
Format profile : HE-AAC / LC
Format settings : Explicit
Codec ID : A_AAC-2
Duration : 1 h 49 min
Bit rate : 96.0 kb/s
Channel(s) : 2 channels
Channel positions : Front: L R
Sampling rate : 48.0 kHz / 24.0 kHz
Frame rate : 23.438 FPS (1024 SPF)
Compression mode : Lossy
Stream size : 74.1 MiB (10%)
Language : English
Default : Yes
Forced : No






[url=http://pichub.site/image/Mil7I]
http://pichub.site/images/2018/05/17/00_05_46.jpg
[/url]
[url=http://pichub.site/image/MiPZ8]
http://pichub.site/images/2018/05/17/01_35_20.jpg
[/url]
[url=http://pichub.site/image/MisA5]
http://pichub.site/images/2018/05/17/00_22_06.jpg
[/url]
[url=http://pichub.site/image/MinOJ]
http://pichub.site/images/2018/05/17/00_31_45.jpg
[/url]
[url=http://pichub.site/image/Mi14j]
http://pichub.site/images/2018/05/17/00_39_46.jpg
[/url]
[url=http://pichub.site/image/Mi36h]
http://pichub.site/images/2018/05/17/01_14_14.jpg
[/url]
[url=http://pichub.site/image/Mi9Cr]
http://pichub.site/images/2018/05/17/01_18_05.jpg
[/url]


Related torrents

Torrent NameAddedSizeSeedLeechHealth
Verified torrent
2 months ago - in Movies1.38 GB4911
Verified torrent
2 months ago - in Movies751.6 MB49
Verified torrent
2 months ago - in Movies1.13 GB21
Verified torrent
2 months ago - in Movies1.27 GB00
Verified torrent
2 months ago - in Movies840.75 MB00
Verified torrent
2 months ago - in Movies993.21 MB00

Note :

Feel free to post any comments about this torrent, including links to Subtitle, samples, screenshots, or any other relevant information. Please Dont Download anything from Comments, And Dont Post Links to Streaming Sites like Fmovies, Xmovies8, 123Movies, GoMovies, CMovieshd, Solarmovie, Watchfree, Putlockers, GoStream, m4ufree etc.

Comments (0 Comments)




Please login or create a FREE account to post comments

Latest Searches

| Jimmy Kimmel 2014 06 | the 1975 else | audio | Kenzi Marie Try out those new teen tits | Predators 2010 BluRay 720p DTS x264 MgB | Criminal Minds S12E20 | elementary s06e04 x264 | Summer Dance Mania 2011 | Foreign Correspondent S26E19 One Love 720p HDTV x264 ORENJI | smackdown 02 17 | Break Through 2004 | Best New Starlets 2015 1080p | handmaids tale s02e10 | Red Sparrow 2018 | hideaway kiesza official |