Quick Browse
Movies
TV shows
Music
Games
Applications
Anime
Other

Latest Articles

Friends
RARBG
Torrents.me
Torrent Download
Movie4u
1337x
Torrent Downloads

LimeTorrents

Pacific Rim 2 Uprising 2018 720p WEB-DL x264 AC3-RiPRG


    Seeders : 0      Leechers : 0

Hash :D95D8C2436345921A172EAE296D3539020D62241
Added :Last Month in Movies - Movies
Size :2.08 GB
Stream :Watch Online Full Movie @ Movie4u
Share :









Note :

Please Update (Trackers Info) Before Downloading Torrents to See Updated Seeders And Leechers for Batter Download Speed.

Trackers List

Tracker NameLast CheckStatusSeedersLeechers




Torrent File Content (1 file)


Pacific.Rim.2.Uprising.2018.720p.WEB-DL.x264.AC3-RiPRG
     Pacific.Rim.2.Uprising.2018.720p.WEB-DL.x264.AC3-RiPRG.mkv -
2.08 GB



Description



Movies : Action : HD 720p : English


Pacific.Rim.2.Uprising.2018.720p.WEB-DL.x264.AC3-RiPRG

Jake Pentecost, son of Stacker Pentecost, reunites with Mako Mori to lead a new generation of Jaeger pilots, including rival Lambert and 15-year-old hacker Amara, against a new Kaiju threat.

http://www.imdb.com/title/tt2557478/

General

Format : Matroska
Format version : Version 4 / Version 2
File size : 2.08 GiB
Duration : 1h 50mn
Overall bit rate : 2 695 Kbps
Movie name : RiPRG

Video

Format : AVC
Format/Info : Advanced Video Codec
Format profile : [email protected]
Format settings, CABAC : Yes
Format settings, ReFrames : 4 frames
Codec ID : V_MPEG4/ISO/AVC
Duration : 1h 50mn
Bit rate : 2 500 Kbps
Width : 1 280 pixels
Height : 532 pixels
Display aspect ratio : 2.40:1
Frame rate mode : Constant
Frame rate : 23.976 fps
Color space : YUV
Chroma subsampling : 4:2:0
Bit depth : 8 bits
Scan type : Progressive
Bits/(Pixel*Frame) : 0.153
Stream size : 1.87 GiB (90%)
Writing library : x264 core 148
Default : Yes
Forced : No
Color primaries : BT.709
Transfer characteristics : BT.709
Matrix coefficients : BT.709

Audio

Format : AC-3
Format/Info : Audio Coding 3
Mode extension : CM (complete main)
Format settings, Endianness : Big
Codec ID : A_AC3
Duration : 1h 50mn
Bit rate mode : Constant
Bit rate : 224 Kbps
Channel(s) : 2 channels
Channel positions : Front: L R
Sampling rate : 48.0 KHz
Bit depth : 16 bits
Compression mode : Lossy
Delay relative to video : -5ms
Stream size : 177 MiB (8%)
Title : Stereo
Language : English
Default : Yes
Forced : No

Text

Format : ASS
Codec ID : S_TEXT/ASS
Codec ID/Info : Advanced Sub Station Alpha
Compression mode : Lossless
Language : English
Default : No
Forced : No



Related torrents

Torrent NameAddedSizeSeedLeechHealth
2 months ago - in Movies3.26 GB11929
2 months ago - in Movies2.72 GB40
2 months ago - in Other72.53 KB00
2 months ago - in Movies2.72 GB04
2 months ago - in Movies2.72 GB43

Note :

Feel free to post any comments about this torrent, including links to Subtitle, samples, screenshots, or any other relevant information. Please Dont Download anything from Comments, And Dont Post Links to Streaming Sites like Fmovies, Xmovies8, 123Movies, GoMovies, CMovieshd, Solarmovie, Watchfree, Putlockers, GoStream, m4ufree etc.

Comments (0 Comments)




Please login or create a FREE account to post comments

Latest Searches

| METART | PublicAgent Sapphire Cute | Syren De Mer Jureka Del Mar Balls Deep | originals S02E14 eztv | xbox360 fifa 14 | gordi boys | Don Mock Target | the making of canada | GIRLS LIKE TINIE TEMPAH | Monster Jordan Pryce | sky pirates 1986 dvdrip xvid ttrg avi | Double Kira Thorn | oasis 2 1080p | tripple x e | epub nl bouma |