Quick Browse
Movies
TV shows
Music
Games
Applications
Anime
Other

Latest Articles

Friends
Torrents.me
Torrent Download
Movie4u
1337x
RARBG
Full Movies
Torrent Downloads

Rifftrax Commentary Tracks - 002 - The Fifth Element (1997)


    Seeders : 5      Leechers : 2

Hash :30C2DD0D9D8B667660E7E0304205DBE54FE44B26
Added :Last Month in Movies - Movies
Size :4.19 GB
Stream :Watch Online Full Movie @ Movie4u
Share :









Note :

Please Update (Trackers Info) Before Downloading Torrents to See Updated Seeders And Leechers for Batter Download Speed.

Trackers List

Tracker NameLast CheckStatusSeedersLeechers
udp://tracker.leechers-paradise.org:6969/announce27 days agosuccess51
udp://shadowshq.yi.org:6969/announce27 days agosuccess51
udp://eddie4.nl:6969/announce27 days agosuccess51
udp://tracker.coppersurfer.tk:6969/announce27 days agosuccess40
udp://tracker.pirateparty.gr:6969/announce27 days agosuccess40
udp://tracker.opentrackr.org:1337/announce27 days agosuccess30
udp://inferno.demonoid.pw:3418/announce27 days agosuccess20
udp://tracker.internetwarriors.net:1337/announce27 days agosuccess00
udp://9.rarbg.to:2710/announce27 days agosuccess00
udp://tracker.x4w.co:6969/announce27 days agosuccess00
udp://tracker.sktorrent.net:6969/announce27 days agosuccess00
udp://mgtracker.org:6969/announce27 days agosuccess00
udp://tracker.mgtracker.org:2710/announce27 days agosuccess02
http://tracker.opentrackr.org/announce27 days agosuccess00
udp://tracker.zer0day.to:1337/announce27 days agosuccess00
udp://tracker.vanitycore.co:6969/announce27 days agosuccess00
udp://public.popcorn-tracker.org:6969/announce27 days agosuccess00
udp://tracker.cypherpunks.ru:6969/announce27 days agosuccess00
udp://asnet.pw:2710/announce27 days agosuccess00
udp://tracker.xku.tv:6969/announce27 days agosuccess00
udp://tracker.mg64.net:6881/announce27 days agosuccess00
udp://tracker.tiny-vps.com:6969/announce27 days agosuccess00
udp://ipv4.tracker.harry.lu:80/announce27 days agosuccess00
udp://p4p.arenabg.ch:1337/announce27 days agosuccess00
udp://tracker.blackunicorn.xyz:6969/announce27 days agosuccess00
udp://tracker4.piratux.com:6969/announce27 days agosuccess00
udp://glotorrents.pw:6969/announce27 days agosuccess00
udp://tracker.trackerfix.com:80/announce27 days agosuccess00
udp://tracker.pomf.se:80/announce27 days agosuccess00
http://tracker2.wasabii.com.tw:6969/announce27 days agosuccess00
udp://explodie.org:6969/announce27 days agosuccess00
udp://castradio.net:6969/announce27 days agosuccess00
http://announce.torrentsmd.com:6969/announce27 days agosuccess00
http://bigfoot1942.sektori.org:6969/announce27 days agosuccess00
http://tracker.trackerfix.com/announce27 days agosuccess00
udp://9.rarbg.me:2710/announce27 days agosuccess00




Torrent File Content (1 file)


     Rifftrax Commentary Tracks - 002 - The Fifth Element (1997).mkv -
4.19 GB



Description



Movies : Comedy : HD 1080p / 1080i : English
Video
Resolution: [email protected] FPS
Source: BluRay Remux (The latest "Mastered in 4K" one)

Audio:
Tracks: 2 (Rifftrax + Original Audio)
Format: Dolby Digital Plus
Bitrate: 256 kBit/s


If you don't know what "Rifftrax" is:
http://www.rifftrax.com/about
http://www.youtube.com/user/RiffTrax

Forum: http://pirates-forum.org/Forum-RiffTrax
If you enjoyed this, throw some money at the creators:
http://www.rifftrax.com/donate


Quote:Format : Matroska
Format version : Version 4 / Version 2
File size : 4.19 GiB
Duration : 2 h 7 min
Overall bit rate mode : Variable
Overall bit rate : 4 710 kb/s
Movie name : Rifftrax Commentary Tracks - 002 - The Fifth Element (1997)
Encoded date : UTC 2018-05-15 13:15:14
Writing application : mkvmerge v23.0.0 ('The Bride Said No') 64-bit
Writing library : libebml v1.3.6 + libmatroska v1.4.9

Video
ID : 1
Format : AVC
Format/Info : Advanced Video Codec
Format profile : [email protected]
Format settings : CABAC / 3 Ref Frames
Format settings, CABAC : Yes
Format settings, RefFrames : 3 frames
Codec ID : V_MPEG4/ISO/AVC
Duration : 2 h 7 min
Bit rate mode : Variable
Bit rate : 4 200 kb/s
Maximum bit rate : 40.0 Mb/s
Width : 1 920 pixels
Height : 1 080 pixels
Display aspect ratio : 16:9
Frame rate mode : Constant
Frame rate : 23.976 FPS
Color space : YUV
Chroma subsampling : 4:2:0
Bit depth : 8 bits
Scan type : Progressive
Bits/(Pixel*Frame) : 0.084
Stream size : 3.74 GiB (89%)
Writing library : x264 core 155 r2901M 7d0ff22
Encoding settings : cabac=1 / ref=4 / deblock=1:0:0 / analyse=0x3:0x133 / me=tesa / subme=11 / psy=1 / psy_rd=1.00:0.00 / mixed_ref=1 / me_range=24 / chroma_me=1 / trellis=2 / 8x8dct=1 / cqm=0 / deadzone=21,11 / fast_pskip=0 / chroma_qp_offset=-2 / threads=1 / lookahead_threads=1 / sliced_threads=0 / slices=4 / nr=0 / decimate=1 / interlaced=0 / bluray_compat=1 / constrained_intra=0 / bframes=3 / b_pyramid=1 / b_adapt=2 / b_bias=0 / direct=3 / weightb=1 / open_gop=1 / weightp=1 / keyint=25 / keyint_min=1 / scenecut=40 / intra_refresh=0 / rc_lookahead=25 / rc=2pass / mbtree=1 / bitrate=4200 / ratetol=1.0 / qcomp=0.60 / qpmin=0 / qpmax=69 / qpstep=4 / cplxblur=20.0 / qblur=0.5 / vbv_maxrate=40000 / vbv_bufsize=30000 / nal_hrd=vbr / filler=0 / ip_ratio=1.40 / aq=1:1.00
Language : English
Default : Yes
Forced : No

Audio #1
ID : 2
Format : E-AC-3
Format/Info : Enhanced Audio Coding 3
Codec ID : A_EAC3
Duration : 2 h 7 min
Bit rate mode : Constant
Bit rate : 256 kb/s
Channel(s) : 2 channels
Channel positions : Front: L R
Sampling rate : 48.0 kHz
Frame rate : 187.500 FPS (256 SPF)
Compression mode : Lossy
Stream size : 233 MiB (5%)
Title : Rifftrax
Language : English
Service kind : Complete Main
Default : Yes
Forced : No

Audio #2
ID : 3
Format : E-AC-3
Format/Info : Enhanced Audio Coding 3
Codec ID : A_EAC3
Duration : 2 h 7 min
Bit rate mode : Constant
Bit rate : 256 kb/s
Channel(s) : 2 channels
Channel positions : Front: L R
Sampling rate : 48.0 kHz
Frame rate : 187.500 FPS (256 SPF)
Compression mode : Lossy
Stream size : 233 MiB (5%)
Title : Original Audio
Language : English
Service kind : Complete Main
Default : No
Forced : No

Menu
00:00:00.000 : en:Intro
00:01:36.981 : en:Main Movie


Related torrents

Torrent NameAddedSizeSeedLeechHealth
6 months ago - in Movies2.35 GB00
2 months ago - in Movies4.18 GB00
Last Month - in Movies2.86 GB00
2 months ago - in Movies3.06 GB00
2 months ago - in Movies3.37 GB31
3 months ago - in Movies1.94 GB23

Note :

Feel free to post any comments about this torrent, including links to Subtitle, samples, screenshots, or any other relevant information. Please Dont Download anything from Comments, And Dont Post Links to Streaming Sites like Fmovies, Xmovies8, 123Movies, GoMovies, CMovieshd, Solarmovie, Watchfree, Putlockers, GoStream, m4ufree etc.

Comments (0 Comments)




Please login or create a FREE account to post comments

Latest Searches

| l d love you to want me lobo | ita out sight | ashlyn 360p | 558p Steele | howl s moving castle x264 AAC | hell v heaven | legalo 90 | amants pont neuf | koontz de ravenzwarte veer | ZebraGirls 2016 |