Quick Browse
Movies
TV shows
Music
Games
Applications
Anime
Other

Latest Articles

Friends
Torrents.me
Torrent Download
Movie4u
1337x
RARBG
Full Movies
Torrent Downloads

Verified torrent The Mercy 2018 1080p BluRay X264-AMIABLE


    Seeders : 1077      Leechers : 524

Hash :44BF03EBBC9F584510A116852DCDC78C793AA909
Added :2 days ago in Movies
Size :7.94 GB
Stream :Watch Online Full Movie @ Movie4u
Share :


The Mercy 2018 1080p BluRay X264-AMIABLE
Download Direct And Anonymously








Note :

Please Update (Trackers Info) Before Downloading Torrents to See Updated Seeders And Leechers for Batter Download Speed.

Trackers List

Tracker NameLast CheckStatusSeedersLeechers
udp://9.rarbg.me:2710/announceYesterdaysuccess1,077524
udp://9.rarbg.to:2710/announceYesterdaysuccess1,077524
udp://tracker.leechers-paradise.org:6969/announceYesterdaysuccess6179
udp://shadowshq.yi.org:6969/announceYesterdaysuccess6179
udp://eddie4.nl:6969/announceYesterdaysuccess6179
udp://tracker.coppersurfer.tk:6969/announceYesterdaysuccess5477
udp://tracker.pirateparty.gr:6969/announceYesterdaysuccess5477
udp://tracker.opentrackr.org:1337/announceYesterdaysuccess4865
udp://tracker.tiny-vps.com:6969/announceYesterdaysuccess4470
udp://tracker.vanitycore.co:6969/announceYesterdaysuccess4364
udp://public.popcorn-tracker.org:6969/announceYesterdaysuccess4264
udp://inferno.demonoid.pw:3418/announceYesterdaysuccess3841
http://bigfoot1942.sektori.org:6969/announceYesterdaysuccess412
udp://tracker.cypherpunks.ru:6969/announceYesterdaysuccess00
udp://asnet.pw:2710/announceYesterdaysuccess00
udp://tracker.xku.tv:6969/announceYesterdaysuccess00
udp://tracker.zer0day.to:1337/announceYesterdaysuccess00
http://tracker.opentrackr.org/announceYesterdaysuccess00
udp://tracker.mgtracker.org:2710/announceYesterdaysuccess00
udp://mgtracker.org:6969/announceYesterdaysuccess00
udp://tracker.sktorrent.net:6969/announceYesterdaysuccess00
udp://p4p.arenabg.ch:1337/announceYesterdaysuccess00
udp://tracker.blackunicorn.xyz:6969/announceYesterdaysuccess00
udp://glotorrents.pw:6969/announceYesterdaysuccess00
udp://tracker.trackerfix.com:80/announceYesterdaysuccess00
http://tracker2.wasabii.com.tw:6969/announceYesterdaysuccess00
udp://explodie.org:6969/announceYesterdaysuccess00
udp://castradio.net:6969/announceYesterdaysuccess00
http://tracker.trackerfix.com/announceYesterdaysuccess00




Torrent File Content (6 files)


The.Mercy.2018.1080p.BluRay.X264-AMIABLE[rarbg]
     RARBG.txt -
30 bytes

    Subs
          The.Mercy.2018.1080p.BluRay.X264-AMIABLE.idx -
50.31 KB

          The.Mercy.2018.1080p.BluRay.X264-AMIABLE.sub -
8.53 MB

     The.Mercy.2018.1080p.BluRay.X264-AMIABLE.mkv -
7.93 GB

     the.mercy.2018.1080p.bluray.x264-amiable.jpg -
190.62 KB

     the.mercy.2018.1080p.bluray.x264-amiable.nfo -
1.42 KB



Description



Movies : Adventure : HD 1080p / 1080i : English


Video
ID : 1
Format : AVC
Format/Info : Advanced Video Codec
Format profile : [email protected]
Format settings : CABAC / 5 Ref Frames
Format settings, CABAC : Yes
Format settings, RefFrames : 5 frames
Codec ID : V_MPEG4/ISO/AVC
Duration : 1 h 41 min
Bit rate : 10.4 Mb/s
Width : 1 920 pixels
Height : 808 pixels
Display aspect ratio : 2.40:1
Frame rate mode : Constant
Frame rate : 24.000 FPS
Color space : YUV
Chroma subsampling : 4:2:0
Bit depth : 8 bits
Scan type : Progressive
Bits/(Pixel*Frame) : 0.280
Stream size : 7.23 GiB (91%)
Writing library : x264 core 155 r2901 7d0ff22
Encoding settings : cabac=1 / ref=5 / deblock=1:-3:-3 / analyse=0x3:0x113 / me=umh / subme=8 / psy=1 / psy_rd=1.00:0.00 / mixed_ref=1 / me_range=32 / chroma_me=1 / trellis=2 / 8x8dct=1 / cqm=0 / deadzone=21,11 / fast_pskip=1 / chroma_qp_offset=-2 / threads=25 / lookahead_threads=4 / sliced_threads=0 / nr=0 / decimate=1 / interlaced=0 / bluray_compat=0 / constrained_intra=0 / bframes=3 / b_pyramid=2 / b_adapt=2 / b_bias=0 / direct=3 / weightb=1 / open_gop=0 / weightp=2 / keyint=240 / keyint_min=24 / scenecut=40 / intra_refresh=0 / rc_lookahead=50 / rc=2pass / mbtree=1 / bitrate=10412 / ratetol=1.0 / qcomp=0.60 / qpmin=0 / qpmax=69 / qpstep=4 / cplxblur=20.0 / qblur=0.5 / ip_ratio=1.40 / aq=3:0.80
Default : Yes
Forced : No
Statistics Tags Issue : no_variable_data 1970-01-01 00:00:00 / no_variable_data 2010-02-22 21:41:29
FromStats_BitRate : 10390804
FromStats_Duration : 01:41:43.042000000
FromStats_FrameCount : 146473
FromStats_StreamSize : 7926939735

Audio
ID : 2
Format : DTS
Format/Info : Digital Theater Systems
Mode : 16
Format settings, Endianness : Big
Codec ID : A_DTS
Duration : 1 h 41 min
Bit rate mode : Constant
Bit rate : 768 kb/s
Channel(s) : 6 channels
Channel positions : Front: L C R, Side: L R, LFE
Sampling rate : 48.0 kHz
Frame rate : 93.750 FPS (512 SPF)
Bit depth : 24 bits
Compression mode : Lossy
Stream size : 559 MiB (7%)
Language : English
Default : Yes
Forced : No
Statistics Tags Issue : no_variable_data 1970-01-01 00:00:00 / no_variable_data 2010-02-22 21:41:29
FromStats_BitRate : 767999
FromStats_Duration : 01:41:42.998000000
FromStats_FrameCount : 572156
FromStats_StreamSize : 585887744

Text #1
ID : 3
Format : UTF-8
Codec ID : S_TEXT/UTF8
Codec ID/Info : UTF-8 Plain Text
Language : English
Default : No
Forced : No
Statistics Tags Issue : no_variable_data 1970-01-01 00:00:00 / no_variable_data 2010-02-22 21:41:29
FromStats_BitRate : 61
FromStats_Duration : 01:34:22.292000000
FromStats_FrameCount : 1028
FromStats_StreamSize : 43292

Text #2
ID : 4
Format : UTF-8
Codec ID : S_TEXT/UTF8
Codec ID/Info : UTF-8 Plain Text
Title : SDH
Language : English
Default : No
Forced : No
Statistics Tags Issue : no_variable_data 1970-01-01 00:00:00 / no_variable_data 2010-02-22 21:41:29
FromStats_BitRate : 65
FromStats_Duration : 01:34:22.292000000
FromStats_FrameCount : 1121
FromStats_StreamSize : 46444

Menu
00:00:00.000 : en:00:00:00.000
00:07:56.750 : en:00:07:56.750
00:16:37.958 : en:00:16:37.958
00:24:15.958 : en:00:24:15.958
00:32:03.833 : en:00:32:03.833
00:41:44.500 : en:00:41:44.500
00:47:50.333 : en:00:47:50.333
00:57:03.333 : en:00:57:03.333
01:05:05.000 : en:01:05:05.000
01:14:32.500 : en:01:14:32.500
01:22:28.750 : en:01:22:28.750
01:31:10.375 : en:01:31:10.375


Related torrents

Torrent NameAddedSizeSeedLeechHealth
2 days ago - in Movies8.05 GB6664
2 days ago - in Movies4.43 GB00
Last Month - in Movies6.56 GB73
Last Month - in Movies6.57 GB00
Last Month - in Movies6.64 GB00
4 months ago - in Movies8.18 GB00

Note :

Feel free to post any comments about this torrent, including links to Subtitle, samples, screenshots, or any other relevant information. Please Dont Download anything from Comments, And Dont Post Links to Streaming Sites like Fmovies, Xmovies8, 123Movies, GoMovies, CMovieshd, Solarmovie, Watchfree, Putlockers, GoStream, m4ufree etc.

Comments (0 Comments)




Please login or create a FREE account to post comments

Latest Searches

| shy glizzy b | minority report mkv ita | ASAP Rocky Michael Jordan | big natural tits | Swinging stars 9 | JIGARBAAZ 2018 | never looking back alex sonata | Fonda max | big tittys compilation | WWE Monday Night Raw 2015 06 08 HDTV x264 NWCHD |