Quick Browse
Movies
TV shows
Music
Games
Applications
Anime
Other

Latest Articles

Friends
Torrents.me
Torrent Download
Movie4u
1337x
RARBG
Full Movies
Torrent Downloads

Verified torrent Tomb Raider 2018 1080p BluRay x264 DTS-HDC


    Seeders : 2953      Leechers : 1747

Hash :8297191B518B89CDAE9EAEC90F6C5BB527CF090C
Added :4 days ago in Movies
Size :13.59 GB
Stream :Watch Online Full Movie @ Movie4u
Share :


Tomb Raider 2018 1080p BluRay x264 DTS-HDC
Download Direct And Anonymously








Note :

Please Update (Trackers Info) Before Downloading Torrents to See Updated Seeders And Leechers for Batter Download Speed.

Trackers List

Tracker NameLast CheckStatusSeedersLeechers
udp://9.rarbg.me:2710/announce2 days agosuccess2,9531,747
udp://9.rarbg.to:2710/announce2 days agosuccess2,9531,747
udp://eddie4.nl:6969/announce2 days agosuccess233154
udp://shadowshq.yi.org:6969/announce2 days agosuccess233154
udp://tracker.leechers-paradise.org:6969/announce2 days agosuccess233154
udp://tracker.coppersurfer.tk:6969/announce2 days agosuccess209136
udp://tracker.pirateparty.gr:6969/announce2 days agosuccess209136
udp://tracker.opentrackr.org:1337/announce2 days agosuccess15576
udp://public.popcorn-tracker.org:6969/announce2 days agosuccess13868
udp://tracker.vanitycore.co:6969/announce2 days agosuccess13165
udp://tracker.tiny-vps.com:6969/announce2 days agosuccess11266
udp://inferno.demonoid.pw:3418/announce2 days agosuccess9658
udp://mgtracker.org:6969/announce2 days agosuccess9561
http://bigfoot1942.sektori.org:6969/announce2 days agosuccess155
http://tracker.opentrackr.org/announce2 days agosuccess00
udp://tracker.zer0day.to:1337/announce2 days agosuccess00
udp://tracker.cypherpunks.ru:6969/announce2 days agosuccess00
udp://asnet.pw:2710/announce2 days agosuccess00
udp://tracker.xku.tv:6969/announce2 days agosuccess00
udp://tracker.mgtracker.org:2710/announce2 days agosuccess00
udp://tracker.sktorrent.net:6969/announce2 days agosuccess00
udp://p4p.arenabg.ch:1337/announce2 days agosuccess00
udp://tracker.blackunicorn.xyz:6969/announce2 days agosuccess00
udp://glotorrents.pw:6969/announce2 days agosuccess00
udp://tracker.trackerfix.com:80/announce2 days agosuccess00
http://tracker2.wasabii.com.tw:6969/announce2 days agosuccess00
udp://explodie.org:6969/announce2 days agosuccess00
udp://castradio.net:6969/announce2 days agosuccess00
http://tracker.trackerfix.com/announce2 days agosuccess00




Torrent File Content (3 files)


Tomb.Raider.2018.1080p.BluRay.x264.DTS-HDC
     English.srt -
58.61 KB

     RARBG.txt -
31 bytes

     Tomb.Raider.2018.1080p.BluRay.x264.DTS-HDC.mkv -
13.59 GB



Description



Movies : Action : HD 1080p / 1080i : English


Video
ID : 1
Format : AVC
Format/Info : Advanced Video Codec
Format profile : [email protected]
Format settings : CABAC / 5 Ref Frames
Format settings, CABAC : Yes
Format settings, ReFrames : 5 frames
Codec ID : V_MPEG4/ISO/AVC
Duration : 1 h 57 min
Bit rate : 15.0 Mb/s
Width : 1 920 pixels
Height : 800 pixels
Display aspect ratio : 2.40:1
Frame rate mode : Constant
Frame rate : 23.976 (24000/1001) FPS
Color space : YUV
Chroma subsampling : 4:2:0
Bit depth : 8 bits
Scan type : Progressive
Bits/(Pixel*Frame) : 0.407
Stream size : 12.3 GiB (91%)
Title : Tomb.Raider.2018.1080p.BluRay.x264.DTS-HDC
Writing library : x264 core 152 r2851kMod ba24899
Encoding settings : cabac=1 / ref=5 / deblock=1:-3:-3 / analyse=0x3:0x133 / me=umh / subme=11 / psy=1 / fade_compensate=0.00 / psy_rd=1.05:0.00 / mixed_ref=1 / me_range=48 / chroma_me=1 / trellis=2 / 8x8dct=1 / cqm=0 / deadzone=21,11 / fast_pskip=0 / chroma_qp_offset=-2 / threads=24 / lookahead_threads=4 / sliced_threads=0 / nr=0 / decimate=0 / interlaced=0 / bluray_compat=0 / constrained_intra=0 / bframes=8 / b_pyramid=2 / b_adapt=2 / b_bias=0 / direct=3 / weightb=1 / open_gop=0 / weightp=2 / keyint=240 / keyint_min=2 / scenecut=40 / intra_refresh=0 / rc=2pass / mbtree=0 / bitrate=15000 / ratetol=1.0 / qcomp=0.70 / qpmin=0 / qpmax=69 / qpstep=4 / cplxblur=20.0 / qblur=0.5 / ip_ratio=1.30 / pb_ratio=1.20 / aq=3:0.80
Language : English
Default : Yes
Forced : No

Audio
ID : 2
Format : DTS
Format/Info : Digital Theater Systems
Codec ID : A_DTS
Duration : 1 h 57 min
Bit rate mode : Constant
Bit rate : 1 509 kb/s
Channel(s) : 6 channels
Channel positions : Front: L C R, Side: L R, LFE
Sampling rate : 48.0 kHz
Frame rate : 93.750 FPS (512 SPF)
Bit depth : 24 bits
Compression mode : Lossy
Stream size : 1.24 GiB (9%)
Title : Tomb.Raider.2018.1080p.BluRay.x264.DTS-HDC
Language : English
Default : Yes
Forced : No

Text
ID : 3
Format : UTF-8
Codec ID : S_TEXT/UTF8
Codec ID/Info : UTF-8 Plain Text
Duration : 1 h 56 min
Bit rate : 29 b/s
Count of elements : 866
Stream size : 24.9 KiB (0%)
Language : English
Default : Yes
Forced : No


Related torrents

Torrent NameAddedSizeSeedLeechHealth
Last Month - in Movies762.15 MB14
Last Month - in Movies762.15 MB011
2 months ago - in Movies9.59 GB00
2 months ago - in Movies11.42 GB151
4 days ago - in Movies4.86 GB187159

Note :

Feel free to post any comments about this torrent, including links to Subtitle, samples, screenshots, or any other relevant information. Please Dont Download anything from Comments, And Dont Post Links to Streaming Sites like Fmovies, Xmovies8, 123Movies, GoMovies, CMovieshd, Solarmovie, Watchfree, Putlockers, GoStream, m4ufree etc.

Comments (0 Comments)




Please login or create a FREE account to post comments

Latest Searches

| Teresa Mummert Honor Student Honor 1 | Oswald 1 | 113 | anal baseball charisma | The Expanse season 4 | Oswald S01E01 | thilliez french | r hvac | Emily Willis Kimber Woods Vacation Anal | Vacation Anal Emily Willis Kimber Woods |